請問..........

我在機頂盒用USB手指錄了一些節目
但在電腦就不能播放
我試過用Media Player Classic  ----> 有聲無畫
用TMPGEnc 4.0 XPress  ------>不能插入檔案

而這個 ts 檔的資料如下
General
Complete name                    : E:\2009.09.03_1.ts
Format                           : MPEG-TS
Format profile                   : No PAT/PMT
File size                        : 7.53 MiB
Duration                         : 5s 6ms
Overall bit rate                 : 12.6 Mbps

Video
ID                               : 851 (0x353)
Format                           : AVC
Format/Info                      : Advanced Video Codec
Format profile                   : [email protected]
Format settings, CABAC           : Yes
Format settings, ReFrames        : 4 frames
Duration                         : 5s 6ms
Bit rate                         : 11.2 Mbps
Width                            : 1 920 pixels
Height                           : 1 080 pixels
Display aspect ratio             : 16:9
Frame rate                       : 25.000 fps
Resolution                       : 24 bits
Colorimetry                      : 4:2:0
Scan type                        : Interlaced
Bits/(Pixel*Frame)               : 0.215
Stream size                      : 6.68 MiB (89%)

Audio #1
ID                               : 852 (0x354)
Format                           : AC-3
Format/Info                      : Audio Coding 3
Duration                         : 4s 992ms
Bit rate mode                    : Constant
Bit rate                         : 192 Kbps
Channel(s)                       : 2 channels
Channel positions                : L R
Sampling rate                    : 48.0 KHz
Video delay                      : -1s 99ms
Stream size                      : 117 KiB (2%)

Audio #2
ID                               : 853 (0x355)
Format                           : AC-3
Format/Info                      : Audio Coding 3
Duration                         : 4s 960ms
Bit rate mode                    : Constant
Bit rate                         : 384 Kbps
Channel(s)                       : 6 channels
Channel positions                : Front: L C R, Surround: L R, LFE
Sampling rate                    : 48.0 KHz
Video delay                      : -1s 76ms
Stream size                      : 233 KiB (3%)

請問我應該用甚麼軟件來播放??
謝謝!!

試下完美解碼(Pure Codec)或射手影音播放器(svplayer)吧。

TOP

原帖由 gowan 於 2009-9-4 10:51 發表
試下完美解碼(Pure Codec)或射手影音播放器(svplayer)吧。


用Pure Codec 終於播到了
謝謝
不過還是不能插入到TMPGEnc 4.0 XPress
請問我應該用甚麼軟件來剪接??

TOP