之前有人問A77 拍片

之前有人問拍片會唔會過熱, 我試過唔小心襟o左兩段, 最近搵番了

1st section
Format                           : BDAV
Format/Info                      : Blu-ray Video
File size                        : 1.98 GiB
Duration                         : 17mn 13s
Overall bit rate                 : 16.5 Mbps
Maximum Overall bit rate         : 18.0 Mbps
Video
ID                               : 4113 (0x1011)
Menu ID                          : 1 (0x1)
Format                           : AVC
Format/Info                      : Advanced Video Codec
Format profile                   : [email protected]
Format settings, CABAC           : Yes
Format settings, ReFrames        : 2 frames
Format_Settings_GOP              : M=1, N=26
Duration                         : 17mn 13s
Bit rate mode                    : Variable
Bit rate                         : 15.5 Mbps
Maximum bit rate                 : 16.0 Mbps
Width                            : 1 920 pixels
Height                           : 1 080 pixels
Display aspect ratio             : 16:9
Frame rate                       : 25.000 fps
Resolution                       : 8 bits
Colorimetry                      : 4:2:0
Scan type                        : Interlaced
Scan order                       : Top Field First
Bits/(Pixel*Frame)               : 0.300
Stream size                      : 1.87 GiB (94%)

2nd section
Format                           : BDAV
Format/Info                      : Blu-ray Video
File size                        : 1.45 GiB
Duration                         : 12mn 37s
Overall bit rate                 : 16.4 Mbps
Maximum Overall bit rate         : 18.0 Mbps
Video
ID                               : 4113 (0x1011)
Menu ID                          : 1 (0x1)
Format                           : AVC
Format/Info                      : Advanced Video Codec
Format profile                   : [email protected]
Format settings, CABAC           : Yes
Format settings, ReFrames        : 2 frames
Format_Settings_GOP              : M=1, N=26
Duration                         : 12mn 36s
Bit rate mode                    : Variable
Bit rate                         : 15.5 Mbps
Maximum bit rate                 : 16.0 Mbps
Width                            : 1 920 pixels
Height                           : 1 080 pixels
Display aspect ratio             : 16:9
Frame rate                       : 25.000 fps
Resolution                       : 8 bits
Colorimetry                      : 4:2:0
Scan type                        : Interlaced
Scan order                       : Top Field First
Bits/(Pixel*Frame)               : 0.299
Stream size                      : 1.37 GiB (94%)

file too big i wont upload la, 不過唔覺得有窒/花畫面或其他問題.

兩段片係接住落, 即係連拍30mins video是沒問題的.

TOP