Madvr 與 gpu 超頻

我平時睇片有用下Madvr去提升畫質
咁我想推盡張GTX960性能
所以將張卡由12XXMHz超到15XXMHz
咁平時打機睇住msi afterburner都見到張卡真係超左上去15xxMHz
但一用madvr睇片就keep住12xxMHz 然後核芯使用率99%
似乎無視左我個超頻設定
有無方法可以睇片都推盡張卡佢??
即係我想用到張卡15xxMHz 99%

我估madvr一野就可以用盡ttxp99%
你用超取樣
再慢慢加加減減

如果睇有水印動作片唔好用madvr
起碼要4gb以上mp4(非iso)再開盡madvr先好睇

TOP

其實係咪張卡full load,overheat咗,跟住降頻。我張1070過咗80%已經開始drop frames,你有冇ctrl+J睇下個madvr已經drop frames,照計去到99% usage冇可能冇drop frames。

TOP

YES
我見到有drop frames
但係我唔明白
例如話你張1070去到80%就drop frames
姐係未跑盡
如果張卡肯跑到盡咁咪唔會有drop frames OR 少D???
點解d卡唔肯跑盡自己...
我而家就係想谷到張卡跑高D頻率
令佢應付到靚D settings之餘又可以有60fps

ps.張卡~3x-4x度 應該唔算熱掛

TOP

YES
我見到有drop frames
但係我唔明白
例如話你張1070去到80%就drop frames
姐係未跑盡
如果張卡肯跑到盡 ...
s2007218 發表於 2017-2-9 13:23


唔係全部時間都一定係GPU load
部份時間係CPU做野, 部份時間係transfer data, 仲有好多其他因素......
情況等於經lan抄file唔一定用足lan全速一樣

TOP

YES
我見到有drop frames
但係我唔明白
例如話你張1070去到80%就drop frames
姐係未跑盡
如果張卡肯跑到盡 ...
s2007218 發表於 2017-2-9 01:23 PM

之前用果張970都係咁,一定要留返D head room畀張卡,唔係一定drop frame。
不過張970由1100MHz OC到 1500MHz對Madvr影響不大,似同本身張卡個核心有幾多個unified shaders有關,超幾多都好似冇乜用

TOP

用GTX1080 行Madvr set勁d出4K TV播4K 60fps HDR 都會drop frames
反而1080p up埋上4K set最勁都唔會drop

TOP

本帖最後由 ricky1992 於 2017-2-9 22:41 編輯
用GTX1080 行Madvr set勁d出4K TV播4K 60fps HDR 都會drop frames
反而1080p up埋上4K set最勁都唔 ...
bbgirl223 發表於 2017-2-9 22:35



我就試過1080 4k 藍光都冇drop frames
但係D動畫反而有小小
我係用NGU very high

TOP

我就試過1080 4k 藍光都冇drop frames
但係D動畫反而有小小
我係用NGU very high ...
ricky1992 發表於 2017-2-9 22:39


4K 藍光係咩format先
大部份片源都係25-30fps,但BT2020 60fps就

TOP

4K 藍光係咩format先
大部份片源都係25-30fps,但BT2020 60fps就
bbgirl223 發表於 2017-2-9 22:48



Jason.Bourne.2016.UltraHD.BluRay.2160p.HEVC.BT2020.DTS-HD MA-X 7.1-HDL.mkv
Format                         : Matroska
Format version                 : Version 4 / Version 2
File size                      : 58.2 GiB
Duration                       : 2 h 3 min
Overall bit rate               : 67.7 Mb/s
Encoded date                   : UTC 2017-01-01 11:47:43
Writing application            : mkvmerge v9.5.0 ('Quiet Fire') 64bit
Writing library                : libebml v1.3.4 + libmatroska v1.4.5

Video
ID                             : 1
Format                         : HEVC
Format/Info                    : High Efficiency Video Coding
Format profile                 : Main [email protected]@High
Codec ID                       : V_MPEGH/ISO/HEVC
Duration                       : 2 h 3 min
Bit rate                       : 59.7 Mb/s
Width                          : 3 840 pixels
Height                         : 2 160 pixels
Display aspect ratio           : 16:9
Frame rate mode                : Constant
Frame rate                     : 23.976 (24000/1001) FPS
Color space                    : YUV
Chroma subsampling             : 4:2:0 (Type 1)
Bit depth                      : 10 bits
Bits/(Pixel*Frame)             : 0.300
Stream size                    : 51.3 GiB (88%)
Writing library                : x265 2.0+18-b0ec268aef60:[Windows][GCC 6.1.0][64 bit] 10bit
Encoding settings              : wpp / ctu=64 / min-cu-size=8 / max-tu-size=32 / tu-intra-depth=1 / tu-inter-depth=1 / me=1 / subme=2 / merange=57 / no-rect / no-amp / max-merge=2 / temporal-mvp / no-early-skip / rskip / rdpenalty=0 / no-tskip / no-tskip-fast / strong-intra-smoothing / no-lossless / no-cu-lossless / no-constrained-intra / no-fast-intra / open-gop / no-temporal-layers / interlace=0 / keyint=250 / min-keyint=23 / scenecut=40 / rc-lookahead=20 / lookahead-slices=8 / bframes=4 / bframe-bias=0 / b-adapt=2 / ref=3 / limit-refs=3 / no-limit-modes / weightp / no-weightb / aq-mode=1 / qg-size=32 / aq-strength=1.00 / cbqpoffs=0 / crqpoffs=0 / rd=3 / psy-rd=2.00 / rdoq-level=0 / psy-rdoq=0.00 / log2-max-poc-lsb=8 / no-rd-refine / signhide / deblock=0:0 / sao / no-sao-non-deblock / b-pyramid / cutree / no-intra-refresh / rc=abr / bitrate=61000 / qcomp=0.60 / qpmin=0 / qpmax=69 / qpstep=1 / vbv-maxrate=160000 / vbv-bufsize=160000 / ipratio=1.40 / pbratio=1.30
Default                        : Yes
Forced                         : Yes
Color range                    : Limited
Color primaries                : BT.2020
Transfer characteristics       : SMPTE ST 2084
Matrix coefficients            : BT.2020 non-constant
Mastering display color primar : R: x=0.680000 y=0.320000, G: x=0.265000 y=0.690000, B: x=0.150000 y=0.060000, White point: x=0.312700 y=0.329000
Mastering display luminance    : min: 0.0001 cd/m2, max: 1000.0000 cd/m2
Maximum Content Light Level    : 1000 cd/m2
Maximum Frame-Average Light Le : 500 cd/m2

Audio #1
ID                             : 2
Format                         : DTS
Format/Info                    : Digital Theater Systems
Format profile                 : X / MA / Core
Mode                           : 16
Format settings, Endianness    : Big
Codec ID                       : A_DTS
Duration                       : 2 h 3 min
Bit rate mode                  : Variable / Variable / Constant
Bit rate                       : 7 389 kb/s / 7 389 kb/s / 1 509 kb/s
Channel(s)                     : Object Based / 8 channels / 6 channels
Channel positions              : Object Based / Front: L C R, Side: L R, Back: L R, LFE / Front: L C R, Side: L R, LFE
Sampling rate                  :  / 48.0 kHz / 48.0 kHz
Frame rate                     : 93.750 FPS (512 spf)
Bit depth                      :  / 24 bits / 24 bits
Compression mode               :  / Lossless / Lossy
Delay relative to video        : 10 ms
Stream size                    : 6.36 GiB (11%)
Language                       : English
Default                        : Yes
Forced                         : No

Audio #2
ID                             : 3
Format                         : AC-3
Format/Info                    : Audio Coding 3
Mode extension                 : CM (complete main)
Format settings, Endianness    : Big
Codec ID                       : A_AC3
Duration                       : 2 h 3 min
Bit rate mode                  : Constant
Bit rate                       : 640 kb/s
Channel(s)                     : 6 channels
Channel positions              : Front: L C R, Side: L R, LFE
Sampling rate                  : 48.0 kHz
Frame rate                     : 31.250 FPS (1536 spf)
Bit depth                      : 16 bits
Compression mode               : Lossy
Delay relative to video        : 10 ms
Stream size                    : 564 MiB (1%)
Language                       : English
Default                        : No
Forced                         : No

TOP