新fireware 出了 - 全線Ainol V6000 V8000討論

2/11
http://www.ainol.com/down/firmware/
请认真阅读压缩包内的升级说明

1、增加了自动关机功能。
2、增加收音机的后台播放。
3、增加了一键退出到主界面的功能(长按ESC)。
4、在设置菜单里增加了“文件管理”功能,可以看到无法播放的文件。
5、在设置里增加了“主菜单隐藏”的功能,在设置的时间之后可以把主菜单隐藏,时间居中显示。
6、设置的关于本机里面可以同时显示,版本和磁盘的容量信息。
7、电子书中增加了黑色字体的显示。
8、增加了删除书签的功能。
9、增加了一个小游戏“快乐五子棋”.
10、在恢复默认设置,保存设置,删除文件时,增加了是否执行该功能的提示。
11、优化了播放本地磁盘里面的视频,音乐的顺序。
12、优化了视频,音乐的文件信息的显示。
13、改善了视频播放完毕后会自动返回到播放列表。
14、提高了视频快进的速度。
15、长按音量加减键能快速加减音量
16、改善了在英文状态下,日历上的“星期...”显示中文。
17、录音里面,增加了一个回放录音的的功能。
18、改善了在英文状态下,游戏里子菜单显示为中文。
19、改善了在中文状态下,本机没文件时提示为英文。
20、改善了在恢复出厂默认设置后,进入电台列表更新电台,不能搜索电台。
21、关于本机的系统信息显示为:K0810.1028
===============================
我近排屎忽得很xd
**********
EARPHONE 係原裝密封包裝
唔係的話 佢就應該係抽起了
**********
2/10
格個價la~
大約 買個價唔應該相差得太遠啦
V6000HDS
- 8GB $620
- 16GB $ 720
V6000HDV
- 8GB 最高$580
- 16GB 最高$640
V6000HDR
- 8GB $470 (最平過買cheap mp3 )

V8000HDG / HDA (<--LTPS Panel)
- 8GB $720
- 16GB $ 810
V8000HDB
- 8GB $550
請留意 (*8000HD 一定有跟OTG 線,火牛,hdmi cable,袋,保護貼,手帶等)

30/9 發現有一些鋪頭,不老實,抽起了保護貼,或HDMI Cable,或袋,請各位大大留意一下
1/10
全香港實際得四間代理
- pangpo 係總代~~其下大部份部都係同佢拿貨.... (果然係人多好辦事,拿貨多)
- 恒"原"
- 環偒
- 世紀

另一樣 有d 覺得被人cheat 的感覺~就是

艾諾都係寫一年保修~~
但好多間都係做十八個月保,
咁最後個六個月係
俾錢保?定代理保?定點?
真係唔知

29/9 已測試新固件
請大家更新
更新好易,怕有問題,請到你的代理 給他更新

有繁體,但請各位大大留意,這個是big5 碼 ,不是unicode 所以會亂碼。
=============================================
今日見到邊V8000HDG 8G
忍唔住手 買了~~
價錢看自己找找唔過八舊水啦
係旺電買世X買
http://ainol.centurycomputer.com.hk
唔講咁多 , (今晚玩機, 暫時個speaker 超大聲正,介面一流)

音樂試過幾首
bass 好重 , 我中意 可能我用CX500 earphone
有EQ 同v6k一樣
用原裝個個earphone都可以,中上質量 ,看個人需求

片個個其實同v6k一樣,但呢個fireware應該係用6kv 最新個個改吧
所以聽聞有用戶有d mkv 用唔到.
有片試過 唔得 請大家報告下 , 乜size, 乜類型

Youre.Hired.EP17.720p.HDTV.x264-TVB.mkv
呢種片 lag,但看到。 可能係x264
Youre.Hired.EP17.720p.HDTV.x264-TVB\Youre.Hired.EP17.720p.HDTV.x264-TVB.mkv
   General
      Complete name : C:\Documents and Settings\Administrator\桌面\Youre.Hired.EP17.720p.HDTV.x264-TVB\Youre.Hired.EP17.720p.HDTV.x264-TVB.mkv
      Format : Matroska
      File size : 1.09 GiB
      Duration : 43mn 32s
      Overall bit rate : 3 593 Kbps
      Encoded date : UTC 2009-09-02 16:19:31
      Writing application : mkvmerge v2.9.7 ('Tenderness') built on Jul  1 2009 18:43:35
      Writing library : libebml v0.7.7 + libmatroska v0.8.1
   Video #1
      Format : AVC
      Format/Info : Advanced Video Codec
      Format profile : [email protected]
      Format settings, CABAC : Yes
      Format settings, ReFrames : 5 frames
      Codec ID : V_MPEG4/ISO/AVC
      Duration : 43mn 32s
      Bit rate : 3 058 Kbps
      Width : 1 280 pixels
      Height : 720 pixels
      Display aspect ratio : 16/9
      Frame rate : 25.000 fps
      Resolution : 24 bits
      Colorimetry : 4:2:0
      Scan type : Progressive
   Audio #2
      Format : AC-3
      Format/Info : Audio Coding 3
      Codec ID : A_AC3
      Duration : 43mn 32s
      Bit rate mode : Constant
      Bit rate : 384 Kbps
      Channel(s) : 6 channels
      Channel positions : Front: L C R, Rear: L R, LFE
      Sampling rate : 48.0 KHz


480P 當然no problem
C:\Documents and Settings\Administrator\桌面\TVBOXNOW 絕代商驕 RMVB\TVBOXNOW 絕代商驕 RMVB CH18.rmvb
   General
TVBOXNOW 絕代商驕 RMVB\TVBOXNOW 絕代商驕 RMVB CH18.rmvb
      Format : RealMedia
      File size : 496 MiB
      Duration : 44mn 55s
      Overall bit rate : 1 533 Kbps
      Performer : TVBNOW
      Copyright : TVBNOW Official
   Video #1
      Format : RealVideo 4
      Codec ID : RV40
      Codec ID/Info : Based on AVC (H.264), Real Player 9
      Duration : 44mn 55s
      Bit rate : 1 405 Kbps
      Width : 848 pixels
      Height : 480 pixels
      Display aspect ratio : 16/9
      Frame rate : 25 fps
      Resolution : 12 bits
      Bits/(Pixel*Frame) : 0.138
   Audio #0
      Format : AAC
      Format/Info : Advanced Audio Codec
      Codec ID : raac
      Codec ID/Info : Real Player 9
      Duration : 44mn 55s
      Bit rate : 128 Kbps
      Channel(s) : 2 channels
      Sampling rate : 44.1 KHz
      Resolution : 16 bits


mp4 1280*720 冇問題
C:\Documents and Settings\Administrator\桌面\yourehired\18.mp4
   General
      Complete name : C:\Documents and Settings\Administrator\桌面\yourehired\18.mp4
      Format : MPEG-4
      Format profile : Base Media
      Codec ID : isom
      File size : 507 MiB
      Duration : 44mn 21s
      Overall bit rate : 1 598 Kbps
      Encoded date : UTC 2009-09-02 16:29:32
      Tagged date : UTC 2009-09-02 16:29:32
   Video #1
      Format : AVC
      Format/Info : Advanced Video Codec
      Format profile : [email protected]
      Format settings, CABAC : Yes
      Format settings, ReFrames : 3 frames
      Codec ID : avc1
      Duration : 44mn 21s
      Bit rate mode : Variable
      Bit rate : 1 500 Kbps
      Maximum bit rate : 2 968 Kbps
      Width : 1 280 pixels
      Height : 720 pixels
      Display aspect ratio : 16/9
      Frame rate mode : Constant
      Frame rate : 25.000 fps
      Resolution : 24 bits
      Colorimetry : 4:2:0
      Scan type : Progressive
      Bits/(Pixel*Frame) : 0.065
      Stream size : 475 MiB (94%)
      Writing library : x264 core 68 r1183M f21daff
      Encoding settings : cabac=1 / ref=3 / deblock=1:0:0 / analyse=0x3:0x113 / me=hex / subme=5 / psy_rd=0.0:0.0 / mixed_ref=1 / me_range=16 / chroma_me=1 / trellis=1 / 8x8dct=1 / cqm=0 / deadzone=21,11 / chroma_qp_offset=0 / threads=6 / nr=0 / decimate=1 / mbaff=0 / bframes=3 / b_pyramid=1 / b_adapt=1 / b_bias=0 / direct=3 / wpredb=1 / keyint=250 / keyint_min=25 / scenecut=40 / rc=2pass / bitrate=1500 / ratetol=4.0 / qcomp=0.40 / qpmin=12 / qpmax=51 / qpstep=4 / cplxblur=20.0 / qblur=0.5 / vbv_maxrate=24000 / vbv_bufsize=9000 / ip_ratio=1.40 / pb_ratio=1.30 / aq=1:1.00
      Encoded date : UTC 2009-09-02 15:56:26
      Tagged date : UTC 2009-09-02 16:29:50
   Audio #2
      Format : AAC
      Format/Info : Advanced Audio Codec
      Format version : Version 4
      Format profile : LC
      Format settings, SBR : No
      Codec ID : 40
      Duration : 44mn 21s
      Bit rate mode : Variable
      Bit rate : 96.0 Kbps
      Maximum bit rate : 153 Kbps
      Channel(s) : 2 channels
      Channel positions : L R
      Sampling rate : 48.0 KHz
      Resolution : 16 bits
      Stream size : 30.7 MiB (6%)
      Encoded date : UTC 2009-09-02 15:56:45
      Tagged date : UTC 2009-09-02 16:29:50

看照片吧
建議各位
如果你係在機看 , 下載normal 480p片就可以了 質量一樣
如果你要出電視 咁就找番d 720p的片

重有未有瀪體 歌詞 and 字幕 會亂馬

[ 本帖最後由 extralam 於 2009-11-3 23:13 編輯 ]

box

boxbox.jpg

box

box.jpg

左邊有HDMI , hold key

left.jpg

一如以往,色差

right.jpg
topview.jpg

乜都根齊

allthing.jpg

usb 轉輸出道 1gb左右 5mins 拉mp3好快

test1.JPG

mp4 1280*720

DSCN5389.JPG

X.264 mkv 1280*720

DSCN5391.JPG

480P的rmvb

DSCN5394.JPG

有 eq

DSCN5395.JPG

音樂ok

DSCN5396.JPG

師兄,得你報告啊!

TOP

間鋪似乎去左imp3.net偷圖,一模一樣,仲要加自己水印

[ 本帖最後由 yizi 於 2009-9-3 12:00 編輯 ]

TOP

我尋日見黃金賣緊750 但都忍手 因為想買16GB佢話未有貨

TOP

want to know the HDMI output performance to TV ?

TOP

原來只係加左HDMI 頭
禁$650 既 V6000HDS 抵d bor~

TOP

原帖由 lapkwanalex 於 2009-9-3 15:55 發表
原來只係加左HDMI 頭
禁$650 既 V6000HDS 抵d bor~

新對應多幾種格式

TOP

之前買咗C500HD
終知得多一個月先買V800HDG

[ 本帖最後由 sacps001119 於 2009-9-3 17:21 編輯 ]

TOP

原帖由 WINGLESLIE 於 2009-9-3 17:01 發表

新對應多幾種格式

師兄可否詳列所有十卜格式,比特率等資料??謝謝

TOP

5" or 4.3"?

TOP