Freemake mute左我的ape track

我有個ape file要轉做mp3
original:
Sampling: 44000Hz
Bitrate: 808kbps

target:
Sampling: 48000Hz  
Bitrate: 192Kbps

1) 唔知點解佢每一個track的開頭都無左幾秒
2) 同埋禁轉音色有冇影響?
THX

foobar2000可以將有CUE的APE轉做mp3。

44.1KHz轉做48KHz需要做升頻,少不免會有失真(未必聽得出),可免則免。

TOP

我記得你上次教我用foobar2000轉ape
但我無cue.
foobar2000是否都可以轉如果我唔分track
有得佢一個single mp3?

TOP

本帖最後由 harryytm 於 2016-4-12 02:28 編輯
我記得你上次教我用foobar2000轉ape
但我無cue.
foobar2000是否都可以轉如果我唔分track
有得佢一個single  ...
luckiejacky 發表於 2016-4-11 13:28

我想問你點解無CUE?

其實可以自已跟CUE個格式寫翻個CUE檔出嚟,格式如下
  1. REM GENRE [專輯類別]
  2. REM DATE [推出年份]
  3. PERFORMER [專輯歌手名]
  4. TITLE "[專輯名]"
  5. FILE "[APE檔案名].APE" WAVE
  6.   TRACK 01 AUDIO
  7.     TITLE "[歌名]"
  8.     PERFORMER "[歌手名]"
  9.     INDEX 01 00:00:00
  10.   TRACK 02 AUDIO
  11.     TITLE "[歌名]"
  12.     PERFORMER "[歌手名]"
  13.     INDEX 01 00:01:04
  14.   TRACK 03 AUDIO
  15.     TITLE "[歌名]"
  16.     PERFORMER "[歌手名]"
  17.     INDEX 01 00:06:43
複製代碼
開一個新Track就TRACK 01 AUDIO、TRACK 02 AUDIO、TRACK 03 AUDIO一直跟號碼咁加上去。
INDEX 01 後面係個APE檔第幾時幾分幾秒,唔係首歌個長度,至於個時間就靠你自已記低個APE入面每首歌開始個時間。

實例:
  1. REM GENRE Soundtrack
  2. REM DATE 2005
  3. REM DISCID 630B0B1B
  4. REM COMMENT "ExactAudioCopy v1.1"
  5. PERFORMER "Ensemble Studios"
  6. TITLE "Age of Empires III"
  7. FILE "Ensemble Studios - Age of Empires III.wav" WAVE
  8.   TRACK 01 AUDIO
  9.     TITLE "Noddinagushpa (Main Title)"
  10.     PERFORMER "Ensemble Studios"
  11.     INDEX 01 00:00:00
  12.   TRACK 02 AUDIO
  13.     TITLE "Across the Ocean Sea"
  14.     PERFORMER "Ensemble Studios"
  15.     INDEX 01 01:12:07
  16.   TRACK 03 AUDIO
  17.     TITLE "Get Off My Band"
  18.     PERFORMER "Ensemble Studios"
  19.     INDEX 01 02:08:01
  20.   TRACK 04 AUDIO
  21.     TITLE "Felonious Junk"
  22.     PERFORMER "Ensemble Studios"
  23.     INDEX 01 05:15:25
  24.   TRACK 05 AUDIO
  25.     TITLE "Ruinion"
  26.     PERFORMER "Ensemble Studios"
  27.     INDEX 01 08:03:60
  28.   TRACK 06 AUDIO
  29.     TITLE "A Pirate's Temper"
  30.     PERFORMER "Ensemble Studios"
  31.     INDEX 01 09:02:37
  32.   TRACK 07 AUDIO
  33.     TITLE "I, Menevero"
  34.     PERFORMER "Ensemble Studios"
  35.     INDEX 00 10:14:08
  36.     INDEX 01 10:14:37
  37.   TRACK 08 AUDIO
  38.     TITLE "Scruffy and Underfed"
  39.     PERFORMER "Ensemble Studios"
  40.     INDEX 01 12:47:46
  41.   TRACK 09 AUDIO
  42.     TITLE "Leisurely Brows"
  43.     PERFORMER "Ensemble Studios"
  44.     INDEX 01 13:41:28
  45.   TRACK 10 AUDIO
  46.     TITLE "A Hot Meal"
  47.     PERFORMER "Ensemble Studios"
  48.     INDEX 01 16:58:21
  49.   TRACK 11 AUDIO
  50.     TITLE "Bubble Chum"
  51.     PERFORMER "Ensemble Studios"
  52.     INDEX 01 18:03:69
  53.   TRACK 12 AUDIO
  54.     TITLE "Of Licious"
  55.     PERFORMER "Ensemble Studios"
  56.     INDEX 01 18:53:16
  57.   TRACK 13 AUDIO
  58.     TITLE "Rest With Us"
  59.     PERFORMER "Ensemble Studios"
  60.     INDEX 01 21:40:17
  61.   TRACK 14 AUDIO
  62.     TITLE "Get Ye Sum"
  63.     PERFORMER "Ensemble Studios"
  64.     INDEX 01 22:10:37
  65.   TRACK 15 AUDIO
  66.     TITLE "Where's My Uncle?"
  67.     PERFORMER "Ensemble Studios"
  68.     INDEX 01 25:27:59
  69.   TRACK 16 AUDIO
  70.     TITLE "Muptop"
  71.     PERFORMER "Ensemble Studios"
  72.     INDEX 01 26:18:09
  73.   TRACK 17 AUDIO
  74.     TITLE "Meet These French"
  75.     PERFORMER "Ensemble Studios"
  76.     INDEX 01 29:14:13
  77.   TRACK 18 AUDIO
  78.     TITLE "Old Timer"
  79.     PERFORMER "Ensemble Studios"
  80.     INDEX 00 29:55:01
  81.     INDEX 01 29:57:03
  82.   TRACK 19 AUDIO
  83.     TITLE "Major Rewrite/General Chunks"
  84.     PERFORMER "Ensemble Studios"
  85.     INDEX 01 30:25:05
  86.   TRACK 20 AUDIO
  87.     TITLE "Take His Toes"
  88.     PERFORMER "Ensemble Studios"
  89.     INDEX 01 33:15:36
  90.   TRACK 21 AUDIO
  91.     TITLE "Happy to You"
  92.     PERFORMER "Ensemble Studios"
  93.     INDEX 01 33:57:55
  94.   TRACK 22 AUDIO
  95.     TITLE "Camels, Straws, and Backs"
  96.     PERFORMER "Ensemble Studios"
  97.     INDEX 01 36:54:16
  98.   TRACK 23 AUDIO
  99.     TITLE "Years in the Making"
  100.     PERFORMER "Ensemble Studios"
  101.     INDEX 01 37:50:54
  102.   TRACK 24 AUDIO
  103.     TITLE "LastName CraneIchabod"
  104.     PERFORMER "Ensemble Studios"
  105.     INDEX 01 38:30:24
  106.   TRACK 25 AUDIO
  107.     TITLE "Ludus Perditus (The End of Happy Times)"
  108.     PERFORMER "Ensemble Studios"
  109.     INDEX 01 41:42:69
  110.   TRACK 26 AUDIO
  111.     TITLE "Niceterium (The Sound of One Hand Clapping)"
  112.     PERFORMER "Ensemble Studios"
  113.     INDEX 01 42:49:63
  114.   TRACK 27 AUDIO
  115.     TITLE "There is Weather/Decisions are Made (End Credits)"
  116.     PERFORMER "Ensemble Studios"
  117.     INDEX 01 43:42:18
複製代碼

TOP

Okay, works well, thanks a lot

TOP

提示: 作者被禁止或刪除 內容自動屏蔽

TOP

提示: 作者被禁止或刪除 內容自動屏蔽

TOP