m2ts for kmplayer

唔知點解播.m2ts 檔會無聲
話我無no Audio Decoder
點先有? 又唔想裝果D 咩完美解碼果類 有無D plug-in 可以搞掂?

[Primary Filtergraph]
0) - 00004.m2ts
1) - Gabest MPEG2(TS) Splitter
2) - KMP Video Codec
3) - Video Mixing Renderer9(Renderless)

[Video Info]
Decoder - (MPEG2) KMP Video Codec(AVC1-libcodec.dll)
Format - Major Type: Video - Sub Type: YV12
VideoInfo2: YV12 1920X-1080, 12 bits

[Audio Info]
Decoder - No codec

[Basic Video DSP]
Internal brightness: 100%
+Low Pass Filter

[Advanced Video DSP]
+Video Plugin

[Audio DSP]
+Pre amplification: Main: (100%)
+Auto Volume Control
+Audio Plugin

[Subtitle Settings]
+Draw Mode(Selected): VMR
+Draw Mode(In use): On Overlay
+Text Rendering Method: Rasterizer
+Support HTML Tags(SMI)

[KMPlayer]
+Version: 3.0.0.1441(6,982,144, 6/20/2011 1:05:08 PM)
+libcodec.dll: (4,799,186, 6/15/2011 3:43:00 PM)
+libmplay.dll: (431,616, 7/14/2008 10:31:44 AM)
+PProcDLL.dll: 1.0.0.1(1,769,472, 2/25/2008 2:07:04 PM)
+LibDTS.dll: (178,174, 12/5/2008 3:42:20 PM)
+liba52.dll: (73,063, 12/5/2008 3:41:10 PM)
+libfaad2.dll: (335,155, 12/5/2008 3:37:06 PM)
+libmad.dll: (123,036, 12/5/2008 3:42:30 PM)
+libmpeg2.dll: (154,644, 12/5/2008 3:42:42 PM)
+theora.dll: (200,864, 12/5/2008 3:43:32 PM)
+OggVorbis.dll: (1,165,312, 2/25/2008 2:07:00 PM)
+xviddll.dll: (758,319, 12/5/2008 3:58:36 PM)
+Old_QUARTZ.DLL: 6.01.05.0319(770,048, 2/25/2008 2:07:00 PM)
+AboutDll.dll: (105,472, 10/3/2005 1:12:18 PM)
+DTView.dll: (104,448, 2/25/2008 2:04:36 PM)
+ImLoader.dll: (856,064, 2/25/2008 2:05:22 PM)
+MediaInfo.dll: 0.7.45.0(2,850,584, 6/15/2011 6:28:00 PM)
+KMPAlbumArt.dll: 2009, 1, 5, 0(2,400,256, 1/6/2009 2:33:48 AM)
+KMP_Album_Art.swf: (169,320, 9/10/2009 12:26:22 PM)


--------------------
[File Info]
--------------------
E:\Files\CHARS_COUNTERATTACK\BDMV\STREAM\00004.m2ts
  General #0
    ID : 0 (0x0)
    Complete name : E:\Files\CHARS_COUNTERATTACK\BDMV\STREAM\00004.m2ts
    Format : BDAV
    Format/Info : Blu-ray Video
    File size : 33.0 GiB
    Duration : 1h 59mn
    Overall bit rate : 39.4 Mbps
    Maximum Overall bit rate : 48.0 Mbps
  Video #4113
    ID : 4113 (0x1011)
    Menu ID : 1 (0x1)
    Format : AVC
    Format/Info : Advanced Video Codec
    Format profile : High@L4.1
    Format settings, CABAC : Yes
    Format settings, ReFrames : 4 frames
    Codec ID : 27
    Duration : 1h 59mn
    Bit rate mode : Variable
    Bit rate : 36.3 Mbps
    Maximum bit rate : 39.0 Mbps
    Width : 1 920 pixels
    Height : 1 080 pixels
    Display aspect ratio : 16:9
    Frame rate : 23.976 fps
    Standard : NTSC
    Color space : YUV
    Chroma subsampling : 4:2:0
    Bit depth : 8 bits
    Scan type : Progressive
    Bits/(Pixel*Frame) : 0.730
    Stream size : 30.4 GiB (92%)
    Color primaries : BT.709-5, BT.1361, IEC 61966-2-4, SMPTE RP177
    Transfer characteristics : BT.709-5, BT.1361
    Matrix coefficients : BT.709-5, BT.1361, IEC 61966-2-4 709, SMPTE RP177
  Audio #4352
    ID : 4352 (0x1100)
    Menu ID : 1 (0x1)
    Format : PCM
    Format settings, Endianness : Big
    Format settings, Sign : Signed
    Muxing mode : Blu-ray
    Codec ID : 128
    Duration : 1h 59mn
    Bit rate mode : Constant
    Bit rate : 1 536 Kbps
    Channel(s) : 2 channels
    Channel positions : Front: L R
    Sampling rate : 48.0 KHz
    Bit depth : 16 bits
    Stream size : 1.29 GiB (4%)

solved

TOP