A-card, 有用開MPC-HC@K-Lite的朋友

本帖最後由 ccw 於 2010-5-10 03:19 編輯

新的K-Lite5.9.4 + CCC10.4大幅改善在高清放映上的支援,
現在連L5.1, ref frames = 16, fps <=30 的FullHD Video 都可以用内建DXVA decoder正常播放了。
對於早前在這裏一套全高清, 60fps 的Girls' Generation, 雖然已由不能播放變成可能,但在流畅性上有待改進。

唔明白我講的不緊要,如果早前你遇過不能播放的video, 不妨更新再試。

http://www.codecguide.com/

test videos:
http://www.hkepc.com/forum/redir ... 74&pid=22962997

本帖最後由 ccw 於 2010-5-8 13:04 編輯

對於早前在這裏一套全高清, 60fps 的Girls' Generation, 雖然已由不能播放變成可能,但在流畅性上有待改進。

TOP

本帖最後由 ccw 於 2010-5-9 01:18 編輯
一直用n記+CoreAVC 2.0@MPC-HC(K-Lite)開cuda acceleration嘅路過
~Mac迷~ 發表於 2010-5-8 13:35


的確用CUDA的CoreAVC是少d煩惱,但都5係全部都播到架
有d case, MPC-HC built-in 播到, CoreAVC 2.0 播5到

TOP

Windows Media Player 硬解?!
Would you confirming that when you are using Windows Media Player, it is running on DXVA?
As even I switched the codec in MPC-HC to Microsoft's DXVA decoder, problem persists.

TOP

本帖最後由 ccw 於 2010-5-9 01:35 編輯

Girls' Generation
Video
ID                               : 1
Format                           : AVC
Format/Info                      : Advanced Video Codec
Format profile                   : High@L4.1
Format settings, CABAC           : Yes
Format settings, ReFrames        : 5 frames
Muxing mode                      : Container profile=Unknown@4.1
Codec ID                         : V_MPEG4/ISO/AVC
Duration                         : 3mn 21s
Bit rate                         : 20.7 Mbps
Width                            : 1 920 pixels
Height                           : 1 080 pixels
Display aspect ratio             : 16:9
Frame rate                       : 59.940 fps
Resolution                       : 8 bits
Colorimetry                      : 4:2:0
Scan type                        : Progressive
Bits/(Pixel*Frame)               : 0.166
Stream size                      : 485 MiB (97%)
Writing library                  : x264 core 68 r1183M f21daff
Encoding settings                : cabac=1 / ref=5 / deblock=1:0:0 / analyse=0x3:0x133 / me=umh / subme=7 / psy_rd=1.0:0.0 / mixed_ref=1 / me_range=16 / chroma_me=1 / trellis=2 / 8x8dct=1 / cqm=0 / deadzone=21,11 / chroma_qp_offset=-2 / threads=6 / nr=0 / decimate=1 / mbaff=0 / bframes=3 / b_pyramid=1 / b_adapt=2 / b_bias=0 / direct=3 / wpredb=1 / keyint=300 / keyint_min=30 / scenecut=40 / rc=2pass / bitrate=20665 / ratetol=1.0 / qcomp=0.60 / qpmin=10 / qpmax=51 / qpstep=4 / cplxblur=20.0 / qblur=0.5 / ip_ratio=1.40 / pb_ratio=1.30 / aq=1:1.00
http://www.mediafire.com/?yzmmeyogznn

攻殻機動隊 STAND ALONE COMPLEX (OP)
Video
ID                               : 1
Format                           : AVC
Format/Info                      : Advanced Video Codec
Format profile                   : High@L5.0
Format settings, CABAC           : Yes
Format settings, ReFrames        : 10 frames
Muxing mode                      : Container profile=Unknown@5.0
Codec ID                         : V_MPEG4/ISO/AVC
Duration                         : 1mn 32s
Width                            : 1 920 pixels
Height                           : 1 080 pixels
Display aspect ratio             : 16:9
Frame rate                       : 29.970 fps
Resolution                       : 8 bits
Colorimetry                      : 4:2:0
Scan type                        : Progressive
Writing library                  : x264 core 80 r1376M 3feaec2
Encoding settings                : cabac=1 / ref=10 / deblock=1:-2:-2 / analyse=0x3:0x133 / me=tesa / subme=10 / psy=1 / psy_rd=1.5:0.0 / mixed_ref=1 / me_range=32 / chroma_me=1 / trellis=2 / 8x8dct=1 / cqm=0 / deadzone=21,11 / fast_pskip=0 / chroma_qp_offset=-2 / threads=6 / sliced_threads=0 / nr=0 / decimate=0 / mbaff=0 / constrained_intra=0 / bframes=8 / b_pyramid=0 / b_adapt=2 / b_bias=0 / direct=3 / wpredb=1 / wpredp=2 / keyint=250 / keyint_min=25 / scenecut=40 / rc_lookahead=40 / rc=crf / mbtree=1 / crf=14.0 / qcomp=0.60 / qpmin=10 / qpmax=51 / qpstep=4 / ip_ratio=1.40 / aq=1:1.00
http://www.adrive.com/public/a71 ... 78f630d715b4a6.html

killa.sampla.x264(Past XD)
Video
ID                               : 1
Format                           : AVC
Format/Info                      : Advanced Video Codec
Format profile                   : High@L5.1
Format settings, CABAC           : Yes
Format settings, ReFrames        : 16 frames
Muxing mode                      : Container profile=Unknown@5.1
Codec ID                         : V_MPEG4/ISO/AVC
Duration                         : 23s 65ms
Bit rate                         : 33.8 Mbps
Width                            : 1 920 pixels
Height                           : 1 080 pixels
Display aspect ratio             : 16:9
Frame rate                       : 23.976 fps
Resolution                       : 8 bits
Colorimetry                      : 4:2:0
Scan type                        : Progressive
Bits/(Pixel*Frame)               : 0.680
Stream size                      : 93.0 MiB (97%)
http://www.adrive.com/public/f51 ... 9d479477dcedbe.html

TOP

本帖最後由 ccw 於 2010-5-9 00:04 編輯
都係有條片衰左...
Video
ID                               : 1
Format                           : AVC
...
oldmok 發表於 2010-5-8 23:07


Thanks for sharing
But your link seems dead.

And here is a good news:
http://forum.team-mediaportal.co ... mes-decoding-80927/

TOP

回復  ccw

The link seems working for me...
anyway, i hv uploaded the video clip to MediaFire too
c ...
oldmok 發表於 2010-5-9 00:31


You mean for the checking?
I faced the same problem in fact....probably a bug.
If you really want to change, you may install the latest x64 version of the player.
You can change it in the x64 version, and the change in x64 will also affect x86 player.

TOP

本帖最後由 ccw 於 2010-5-9 00:50 編輯
都係有條片衰左...
Video
ID                               : 1
Format                           : AVC
...
oldmok 發表於 2010-5-8 23:07


Hi, I have just tested the video you mentioned.
Yes, I share the same issue with you with MPC-HC Build 1854 with internal decoder.
But the problem is no more after I have switched to CyberLink PowerDVD 10's decoder, you may have a shot on it.

TOP

回復  ccw

yeah, you got my point~
i wonder if it would help if i change the checking to SAR only / ...
oldmok 發表於 2010-5-9 00:47

it should stop me from installing X64 software....probably but I am not sure.

And it won't help by changing the setting.
Its funtions is just to tell the player whether DXVA should be adopted upon the spec of a video, say ref frame no.

In fact, with K-Lite 5.9.0, it is equipped with a older build of MPC-HC(17XX, forgot), in which its checking will disable DXVA for the video of profile > L4.1 or ref frame > 4.
If I want DXVA work with L5.1 video, I have to switch it to "No check".

With 5.9.4, the setting is changed , even with Full Check, DXVA is still adopted and it works as it should.

You may read more about this in the link I posted before.
This is discussed over there.

TOP

上邊涼宮出現花ga問題, 唔係a卡先出現, n卡一樣,
同埋應該係果decoder 對著一d 用比較舊式code的影片都會 ...
keithfc 發表於 2010-5-9 19:08


是的,一些奇形怪狀的片種,明明是可以DXVA的规格,但不論何種decoder都係有問题…………
只好用CoreAVC軟解

TOP