硬盤快爆了,想保留iDTV錄下的.TS FILES做紀念,

硬盤快爆了,想保留iDTV錄下的.TS FILES做紀念,
以後用電腦或PORTABLE睇都得,可以點做?

資料點睇?

General
ID                               : 1 (0x1)
Complete name                    : D:\mydata\20110921_18303.ts
Format                           : BDAV
Format/Info                      : Blu-ray Video
File size                        : 512 MiB
Duration                         : 19s 520ms
Overall bit rate                 : 3 595 Kbps

Video #1
ID                               : 821 (0x335)
Menu ID                          : 82 (0x52)
Format                           : AVC
Format/Info                      : Advanced Video Codec
Format profile                   : High@L3.0
Format settings, CABAC           : Yes
Format settings, ReFrames        : 4 frames
Format settings, GOP             : M=3, N=12
Codec ID                         : 27
Duration                         : 19s 520ms
Width                            : 720 pixels
Height                           : 576 pixels
Display aspect ratio             : 16:9
Frame rate                       : 25.000 fps
Standard                         : PAL
Color space                      : YUV
Chroma subsampling               : 4:2:0
Bit depth                        : 8 bits
Scan type                        : MBAFF
Color primaries                  : BT.470-6 System B, BT.470-6 System G, BT.601-6 625, BT.1358 625, BT.1700 625 PAL, BT.1700 625 SECAM
Transfer characteristics         : BT.470-6 System B, BT.470-6 System G
Matrix coefficients              : BT.470-6 System B, BT.470-6 System G, BT.601-6 625, BT.1358 625, BT.1700 625 PAL, BT.1700 625 SECAM, IEC 61966-2-4 601

Video #2
ID                               : 831 (0x33F)
Menu ID                          : 83 (0x53)
Format                           : AVC
Format/Info                      : Advanced Video Codec
Format profile                   : High@L3.0
Format settings, CABAC           : Yes
Format settings, ReFrames        : 4 frames
Format settings, GOP             : M=3, N=12
Codec ID                         : 27
Duration                         : 2s 80ms
Width                            : 720 pixels
Height                           : 576 pixels
Display aspect ratio             : 16:9
Frame rate                       : 25.000 fps
Standard                         : PAL
Color space                      : YUV
Chroma subsampling               : 4:2:0
Bit depth                        : 8 bits
Scan type                        : MBAFF
Color primaries                  : BT.470-6 System B, BT.470-6 System G, BT.601-6 625, BT.1358 625, BT.1700 625 PAL, BT.1700 625 SECAM
Transfer characteristics         : BT.470-6 System B, BT.470-6 System G
Matrix coefficients              : BT.470-6 System B, BT.470-6 System G, BT.601-6 625, BT.1358 625, BT.1700 625 PAL, BT.1700 625 SECAM, IEC 61966-2-4 601

Audio #1
ID                               : 822 (0x336)
Menu ID                          : 82 (0x52)
Format                           : AC-3
Format/Info                      : Audio Coding 3
Mode extension                   : CM (complete main)
Codec ID                         : 6
Duration                         : 19s 520ms
Bit rate mode                    : Constant
Bit rate                         : 192 Kbps
Channel(s)                       : 2 channels
Channel positions                : Front: L R
Sampling rate                    : 48.0 KHz
Bit depth                        : 16 bits
Compression mode                 : Lossy
Delay relative to video          : -306ms
Stream size                      : 458 KiB (0%)

Audio #2
ID                               : 823 (0x337)
Menu ID                          : 82 (0x52)
Format                           : AC-3
Format/Info                      : Audio Coding 3
Mode extension                   : CM (complete main)
Codec ID                         : 6
Duration                         : 19s 520ms
Bit rate mode                    : Constant
Bit rate                         : 192 Kbps
Channel(s)                       : 2 channels
Channel positions                : Front: L R
Sampling rate                    : 48.0 KHz
Bit depth                        : 16 bits
Compression mode                 : Lossy
Delay relative to video          : -370ms
Stream size                      : 458 KiB (0%)

Audio #3
ID                               : 832 (0x340)
Menu ID                          : 83 (0x53)
Format                           : AC-3
Format/Info                      : Audio Coding 3
Mode extension                   : CM (complete main)
Codec ID                         : 6
Duration                         : 192ms
Bit rate mode                    : Constant
Bit rate                         : 128 Kbps
Channel(s)                       : 2 channels
Channel positions                : Front: L R
Sampling rate                    : 48.0 KHz
Bit depth                        : 16 bits
Compression mode                 : Lossy
Stream size                      : 3.00 KiB (0%)

Audio #4
ID                               : 833 (0x341)
Menu ID                          : 83 (0x53)
Format                           : AC-3
Format/Info                      : Audio Coding 3
Mode extension                   : CM (complete main)
Codec ID                         : 6
Duration                         : 224ms
Bit rate mode                    : Constant
Bit rate                         : 96.0 Kbps
Channel(s)                       : 2 channels
Channel positions                : Front: L R
Sampling rate                    : 48.0 KHz
Bit depth                        : 16 bits
Compression mode                 : Lossy
Stream size                      : 2.63 KiB (0%)

Audio #5
ID                               : 834 (0x342)
Menu ID                          : 83 (0x53)
Format                           : AC-3
Format/Info                      : Audio Coding 3
Mode extension                   : CM (complete main)
Codec ID                         : 6
Duration                         : 224ms
Bit rate mode                    : Constant
Bit rate                         : 96.0 Kbps
Channel(s)                       : 2 channels
Channel positions                : Front: L R
Sampling rate                    : 48.0 KHz
Bit depth                        : 16 bits
Compression mode                 : Lossy
Stream size                      : 2.63 KiB (0%)

Text
ID                               : 825 (0x339)
Menu ID                          : 82 (0x52)
Format                           : DVB Subtitle
Codec ID                         : 6
Delay relative to video          : 610ms
Language                         : Chinese

Menu #1
ID                               : 820 (0x334)
Menu ID                          : 82 (0x52)
Duration                         : -22h 4mn
List                             : 821 (0x335) (AVC) / 822 (0x336) (AC-3) / 823 (0x337) (AC-3) / 825 (0x339) (DVB Subtitle, Chinese)
Language                         :  /  /  / Chinese

Menu #2
ID                               : 830 (0x33E)
Menu ID                          : 83 (0x53)
Duration                         : 19s 520ms
List                             : 831 (0x33F) (AVC) / 832 (0x340) (AC-3) / 833 (0x341) (AC-3) / 834 (0x342) (AC-3)

TOP

資料點睇?

General
ID                               : 1 (0x1)
Complete name                    : D:\mydata\20111009_19003.ts
Format                           : BDAV
Format/Info                      : Blu-ray Video
File size                        : 1.50 GiB
Duration                         : 16mn 18s
Overall bit rate                 : 13.1 Mbps

Video
ID                               : 851 (0x353)
Menu ID                          : 85 (0x55)
Format                           : AVC
Format/Info                      : Advanced Video Codec
Format profile                   : High@L4.0
Format settings, CABAC           : Yes
Format settings, ReFrames        : 4 frames
Format settings, GOP             : M=3, N=12
Codec ID                         : 27
Duration                         : 16mn 18s
Bit rate                         : 12.0 Mbps
Width                            : 1 920 pixels
Height                           : 1 080 pixels
Display aspect ratio             : 16:9
Frame rate                       : 25.000 fps
Color space                      : YUV
Chroma subsampling               : 4:2:0
Bit depth                        : 8 bits
Scan type                        : MBAFF
Bits/(Pixel*Frame)               : 0.232
Stream size                      : 1.37 GiB (92%)
Color primaries                  : BT.709-5, BT.1361, IEC 61966-2-4, SMPTE RP177
Transfer characteristics         : BT.709-5, BT.1361
Matrix coefficients              : BT.709-5, BT.1361, IEC 61966-2-4 709, SMPTE RP177

TOP

本帖最後由 C_Law 於 2011-11-14 13:25 編輯

1.SmartCutter 做剪接
2.ProjectX 將畫/聲/字幕分開
3.WinAVI/Format Fatory 之類將畫面改做體積較小的 Format(eg. mp4, rmvb)
4.Mkvtoolnix將修改後的畫/聲/字幕再合拼做 mkv,視乎你需要, 不一定要合拼所有語言聲軌/字幕

PS.
有時 ProjectX 分出來的字幕可能時間出錯,可用 Subtitle Creator 修正。

TOP

回復 4# C_Law


    想由TS files抽出聲軌儲為MP3 或MP4又點做呢?

TOP

本帖最後由 cwchan3618 於 2011-11-24 00:47 編輯

可以用 project-X 抽出聲軌 (AC3) 再用 Format Factory "Any to MP3" 或 "Any to AAC" 轉成 MP3 或 MP4。

其實你用 Smart Cutter 1.4.0 剪完廣告,可以把剪了廣告的 .ts 用 Format Factory 的 "Any to MP4" 聲畫同時轉檔做 MP4。不過建議用 "Any to MKV" 轉做 MKV 封裝的 MP4 (AVC + AAC),又可以加入多條可隱裝字幕 。參考 http://www.hkepc.com/forum/redir ... 78&pid=25119068

TOP

好似有小小麻煩

TOP

TS Files係咪一定 MPEG2?

TOP

Just copy the files to PC.
There are many palyers (e.g. vlc) that can play the files, without doing anything to it.
Do not convert.

TOP

出咗呢d, 唔見有字幕?
20111125_185019_[82 J2台]_[華麗的挑戰].ts
20111125_185019_[82 J2台]_[華麗的挑戰].ac3
20111125_185019_[82 J2台]_[華麗的挑戰].sup
20111125_185019_[82 J2台]_[華麗的挑戰].sup.IFO
20111125_185019_[82 J2台]_[華麗的挑戰]-02.ac3
20111125_185019_[82 J2台]_[華麗的挑戰]_log.txt

TOP